Ronan keating twenty twenty

And this is just the start. When You Say Nothing At All - 2020 Version (4:12). DR10 -2.20 dB -14.54 dB 3:21 05-Forever And Ever, Amen. The





And this is just the start. When You Say Nothing At All - 2020 Version (4:12). DR10 -2.20 dB -14.54 dB 3:21 twenty four seven laxmi nagar 05-Forever And Ever, Amen. The heartfelt, embracing glory of this song is classic Keating: I guess Ive been known for those first dance songs at weddings, and this has me written all over. DR8 -1.20 dB -11.65 dB 3:37 04-Only Lovers. DR8 -1.20 dB -10.41 dB 3:29 09-Lovin' Each Day (2020 Version). Fans will be thrilled to hear that the four-times Platinum-selling singer and songwriter will be taking his new album to some of the biggest stages for an extensive summer tour so he can celebrate with the people. Ronan Keating Forever Aint Enough. Over the past 12 months Ronan has been tirelessly working on an album that celebrates an incredible solo career spanning two decades. Before that, this weekend (16th February) Ronan is on the bill to perform at the Fire Fight Australia Concert for National Bushfire Relief at the ANZ Stadium in Sydney. One Of A Kind - Orchestral Version (3:40). DR8 -1.20 dB -10.93 dB 3:25 11-Life Is A Rollercoaster (2020 Version). Exactly 20 years after the release of his self-titled, debut solo (.1) album, Ronan, keating, returns with an album that encapsulates his many musical achievements since the millennium. Keating describes his new record, Twenty, twenty, as a greatest hits of brand new music. Twenty, twenty by, ronan, keating on Amazon Music. Stream ad-free or purchase CD s and MP3s now. Twenty, twenty is the eleventh studio twenty four weeks pregnant images album by Irish singer-songwriter. Ronan Keating - Twenty Twenty - m Music Twenty Twenty by Ronan Keating on Amazon Music Twenty Twenty (album) - Wikipedia

Twenty Twenty CD - Official Ronan Keating Store

Twenty Twenty - Ronan Keating Songs, Reviews, Credits

Forever And Ever, Amen (3:21). DR9 -1.20 dB -13.13 dB 3:40 12-One Of A Kind (Orchestral Version). DR8 -0.55 dB -12.22 dB 4:12 10-When You Say Nothing At All (2020 Version). DR8 -1.20 dB -11.17 dB 4:33 08-The Big Goodbye. Ronan Keating Lovin Each Day (2020 Version). Love Will Remain (3:09). Any cookies that may not be particularly necessary for the website to function and is used specifically to collect user personal data via analytics, ads, other embedded contents are termed as non-necessary cookies. Ronan Keating When You Say Nothing At All (2020 Version). Its all about the night before the wedding, the day of the wedding and spending the rest of your life together. Ronan Keating Love Will Remain. Since the original break-up of Boyzone, one of the most successful bands of the Nineties, Keating has forged a soaraway solo career: two back-to-back.1 singles straight out of the gate, 30 consecutive Top 10 singles, 10 studio albums. Ronan, keating.It was released on through Decca Records, after postponement from its announced release on 1 May. Exactly 20 years after the release of his self-titled, debut solo (.1) album, one of the best-loved singers of our generation, Ronan, keating, returns with an album that encapsulates his many musical achievements since the millennium. Find album reviews, songs, credits and award information for. Twenty, twenty by, ronan, keating on AllMusic - 2020. Twenty Twenty Signed CD - Official Ronan Keating Store

 

 

Twenty Twenty - Ronan Keating Credits AllMusic

Home - RK Twenty Twenty

Ronan describes his new record as a greatest hits of brand new music. There are even fewer who have matched a successful band career with a successful solo career. Keating describes his new record, Twenty Twenty, as a greatest hits of brand new music. The One (3:27). Ronan Keating Life Is A Rollercoaster (2020 Version). One of the best-loved singers of our generation, Ronan Keating, also unveils details about his new album that encapsulates his many musical achievements since the millennium. With production assistance from his longstanding wingman Steve Lipson (Annie Lennox, The Rolling Stones, Simple Minds, Whitney Houston, Paul McCartney as well as stand-out solo tracks, Ronan has collaborated with some of his closest musical (and chart-topping) friends. Channels: 2, bits per sample: 24, bitrate: 1532 kbps. DR8 -2.20 dB -13.41 dB 3:27 07-The One. Ronan Keating Little Thing Called Love. Ronan Keating The Big Goodbye. Ronan describes his new record as a greatest hits of brand new music. Ronan, keating, twenty, twenty. Add to Custom List. Add to My Collection. User Ratings (0) Your Rating. Ronan Keating - Wikipedia

 

Ronan Keating Tickets Tour Concert Dates

Lovin' Each Day - 2020 Version (3:29). Ronan Keating Something Wonderful, download. Life Is A Rollercoaster - 2020 Version (3:25). He adds, Im very honoured to have had that, so I wanted to mark it with an album like this. Keating describes his new record, Twenty Twenty, as "a greatest hits of brand new music". To help him celebrate, Keating made two inspired choices: to dive into his back catalogue and for some of the new tracks, to call in some friends. Entitled Twenty Twenty, and set for release on Decca Records on 1st May, Ronan describes his new record as a greatest hits of brand new music. Ronan Keating Forever And Ever, Amen. DR7 -1.20 dB -10.66 dB 3:09 06-Love Will Remain. Only Lovers (3:37). He wants to acknowledge that he certainly doesnt take this for granted: Theres not a lot of artists that have been lucky enough to do 20 years and still be here. Ronan Keating One Of A Kind. Ronan, keating is putting together something special and would like to get you involved. Upload a photo or video of you and something that reminds you of home, you and your family or you in a place where you feel most at home. Upload your video or image by Thursday 30th September 23:59 BST. Ronan Patrick John Keating (born ) is an Irish singer, songwriter, and television and radio presenter who currently hosts a breakfast show on Magic Radio. He debuted twenty grosvenor square price in 1993 alongside Keith Duffy, Michael Graham, Shane Lynch, and Stephen Gately, as the co-lead singer (with Gately) of Irish group Boyzone. Ronan Keating - Twenty Twenty Lyrics and Tracklist Genius Ronan Keating - Twenty Twenty (cd) : Target Twenty bucks trailer

Comments: Ronan keating twenty twenty

  • Avugogi say:

    Ronan Keating - Twenty Twenty (2020, Collector s Edition .His solo career started in 1999 and he has recorded eleven albums.

  • Irykux say:

    Ronan Keating - Twenty Twenty Releases Discogs .Keating s most recent album, Twenty Twenty, in which he celebrates 20 years of solo success is set to come out in July 2020.

  • Oraweqy say:

    Twenty twenty album chords by Ronan Keating @ Ultimate .He ll be promoting it with a huge UK tour in early 2021.

  • Ekodabys say:

    Ronan Keating - Eventim Apollo .Twenty Twenty Ronan Keating.

  • Ewedugo say:

    Ronan Keating - twenty twenty Tour Rescheduled Live .Released July 24, 2020.

Categories